为了方便广大高清爱好者的交流,QQ群:69655899,欢迎大家参与交流!
当前位置: 首页 >> 浏览商品

影片库

搜索影片

    【4KUHD】西线无战事(2022)

    8

    Im Westen nichts Neues

    编号:56-29 类型:电视剧

    视频编码: 影片大小:40.38 GB 片源分类:战争/历史

    地区:美国 是否蓝光:是蓝光 音频格式: 发行年份:2022 更新时间:2022/11/9 11:02:18

    发行年份:2022 影片备注:

 

◎译  名 西线无战事 / 新西线无战事 / All Quiet on the Western Front
◎片  名 Im Westen nichts Neues
◎年  代 2022
◎产  地 德国 / 美国
◎类  别 剧情 / 动作 / 战争
◎语  言 英语 / 德语
◎上映日期 2022-09-12(多伦多电影节) / 2022-09-29(德国) / 2022-10-28(德国网络)
◎IMDb评星  ★★★★★★★★☆☆
◎IMDb评分  8.0/10 from 16,318 users
◎IMDb链接  https://www.imdb.com/title/tt1016150/
◎豆瓣评星 ★★★★✦
◎豆瓣评分 8.7/10 from 20,172 users
◎片  长 148分钟
◎导  演 爱德华·贝尔格 / Edward Berger
◎演  员 费利克斯·卡米勒 / Felix Kammerer | 饰 Paul Bäumer
      阿尔布雷希特·舒赫 / Albrecht Schuch | 饰 Stanislaus Katczinsky
      亚伦·希尔默 / Aaron Hilmer | 饰 Albert Kropp
      丹尼尔·布鲁赫 / Daniel Brühl | 饰 Matthias Erzberger
      塞巴斯蒂安·胡克 / Sebastian Hülk | 饰 Major Von Brixdorf
      安东·范·卢克 / Anton von Lucke | 饰 Hauptmann Von Helldorf
      大卫·史崔梭德 / Devid Striesow | 饰 General Friedrichs
      埃丁·哈萨诺维奇 / Edin Hasanović | 饰 Tjaden Stackfleet
      乔·温特劳布 / Joe Weintraub | 饰 Hauptmann Geyer
      吕克·费特 / Luc Feit | 饰 Stabsarzt
      米夏埃尔·维滕博恩 / Michael Wittenborn | 饰 Rektor
      安德烈·马尔孔 / André Marcon
      Tobias Langhoff Tobias Langhoff | 饰 Generalmajor Von Winterfeldt
      阿德里安·格鲁内瓦尔德 / Adrian Grünewald | 饰 Ludwig Behm
      菲利克斯·冯·布雷多 / Felix von Bredow | 饰 German Sergeant
      迈克尔·斯坦格 / Michael Stange | 饰 Musterungsoffizier
       Moritz Klaus | 饰 Franz Müller
       Peter Sikorski | 饰 Sergeant
       Dominikus Weileder | 饰 Der Junge
       Andreas Döhler | 饰 Leutnant Hoppe
       Anthony Paliotti | 饰 Major Grenier
       Hendrik Heutmann | 饰 Sanitäter Eguisac
       Sebastian Jacques | 饰 Butler
       Wolf Danny Homann | 饰 Feldgendarm
◎编  剧 伊恩·斯托克尔 / Ian Stokell
      爱德华·贝尔格 / Edward Berger
      埃里希·玛利亚·雷马克 / Erich Maria Remarque
      Lesley Paterson Lesley Paterson
◎制  片  人 伊恩·斯托克尔 / Ian Stokell
◎音  乐 沃尔克·贝特尔曼 / Volker Bertelmann
◎摄  影 詹姆斯·弗伦德 / James Friend
◎服  装 利西·克里斯特尔 / Lisy Christl
 
◎简  介 
 
  该片改编自埃里希·玛利亚·雷马克撰写的同名经典小说,讲述在第一次世界大战期间,保罗·鲍曼和同学莱尔、米勒参加了德国国民志愿兵,被派往前线与法军作战。在战场上,他们目睹到了残酷的饥饿、血腥和死亡,战争的荒谬无情让保罗从迷恋战争到心灰意冷。
 
引用
 
 
General
Unique ID                      : 213181064888791069163460472555682977296 (0xA0612DFD2FB8EFEA8EE84E855318D610)
Complete name                  : 西线无战事\Im.Westen.nichts.Neues.2022.2160p.HEVC.DDP5.1.TrueHD.mkv
Format                         : Matroska
Format version                 : Version 2
File size                      : 40.4 GiB
Duration                       : 2 h 28 min
Overall bit rate mode          : Variable
Overall bit rate               : 38.8 Mb/s
Movie name                     : 西線無戰事
Encoded date                   : UTC 2022-10-28 07:35:58
Writing application            : DVDFab 12.0.9.0
Writing library                : libebml v1.4.2 + libmatroska v1.6.3
 
Video
ID                             : 1
Format                         : HEVC
Format/Info                    : High Efficiency Video Coding
Format profile                 : Main 10@L5@High
Codec ID                       : V_MPEGH/ISO/HEVC
Duration                       : 2 h 28 min
Bit rate                       : 37.3 Mb/s
Width                          : 3 840 pixels
Height                         : 2 160 pixels
Display aspect ratio           : 16:9
Frame rate mode                : Constant
Frame rate                     : 24.000 FPS
Color space                    : YUV
Chroma subsampling             : 4:2:0
Bit depth                      : 10 bits
Bits/(Pixel*Frame)             : 0.187
Stream size                    : 38.7 GiB (96%)
Default                        : Yes
Forced                         : No
Color range                    : Limited
Color primaries                : BT.709
Transfer characteristics       : BT.709
Matrix coefficients            : BT.709
 
Audio
ID                             : 6
Format                         : MLP FBA
Format/Info                    : Meridian Lossless Packing FBA
Commercial name                : Dolby TrueHD
Codec ID                       : A_TRUEHD
Duration                       : 2 h 28 min
Bit rate mode                  : Variable
Bit rate                       : 1 422 kb/s
Maximum bit rate               : 9 597 kb/s
Channel(s)                     : 6 channels
Channel layout                 : L R C LFE Ls Rs
Sampling rate                  : 48.0 kHz
Frame rate                     : 1 200.000 FPS (40 SPF)
Compression mode               : Lossless
Stream size                    : 1.48 GiB (4%)
Language                       : German
Default                        : Yes
Forced                         : No
 
Text #1
ID                             : 2
Format                         : PGS
Codec ID                       : S_HDMV/PGS
Codec ID/Info                  : Picture based subtitle format used on BDs/HD-DVDs
Duration                       : 2 h 19 min
Bit rate                       : 27.4 kb/s
Count of elements              : 2682
Stream size                    : 27.3 MiB (0%)
Language                       : German
Default                        : Yes
Forced                         : No
 
Text #2
ID                             : 3
Format                         : PGS
Codec ID                       : S_HDMV/PGS
Codec ID/Info                  : Picture based subtitle format used on BDs/HD-DVDs
Duration                       : 2 h 21 min
Bit rate                       : 27.8 kb/s
Count of elements              : 2922
Stream size                    : 28.1 MiB (0%)
Default                        : No
Forced                         : No
 
Text #3
ID                             : 4
Format                         : PGS
Codec ID                       : S_HDMV/PGS
Codec ID/Info                  : Picture based subtitle format used on BDs/HD-DVDs
Duration                       : 2 h 23 min
Bit rate                       : 17.4 kb/s
Count of elements              : 2018
Stream size                    : 17.9 MiB (0%)
Language                       : Spanish
Default                        : No
Forced                         : No
 
Text #4
ID                             : 5
Format                         : PGS
Codec ID                       : S_HDMV/PGS
Codec ID/Info                  : Picture based subtitle format used on BDs/HD-DVDs
Duration                       : 2 h 26 min
Bit rate                       : 12.9 kb/s
Count of elements              : 2316
Stream size                    : 13.6 MiB (0%)
Language                       : Chinese
Default                        : No
Forced                         : No
 

返回顶部

Copyright © 2004-2022 版权所有 ohtpc.com     京ICP备18033774号-2