为了方便广大高清爱好者的交流,QQ群:69655899,欢迎大家参与交流!
当前位置: 首页 >> 浏览商品

影片库

搜索影片

    信使---------取材于真实的历史事件(2020)

    7.3

    The Courier

    编号:95-205 类型:高清HD

    视频编码: 影片大小:41.41 GB 片源分类:恐怖/惊悚

    地区:美国 是否蓝光:是蓝光 音频格式: 发行年份:2020 更新时间:2021/5/31 14:01:06

    发行年份:2020 影片备注:


◎译  名 信使/情谍报(港)/铁幕行动(台)
◎片  名 The Courier
◎年  代 2020
◎产  地 英国,美国
◎类  别 惊悚
◎语  言 英语
◎上映日期 2020-01-24(圣丹斯电影节) / 2021-03-19(美国) / 2021-05-17(英国)
◎IMDb评分  7.1/10 from 14188 users
◎IMDb链接  https://www.imdb.com/title/tt8368512/
◎豆瓣评分 7.3/10 from 6447 users
◎豆瓣链接 https://movie.douban.com/subject/30212001/
◎片  长 111分钟
◎导  演 多米尼克·库克 Dominic Cooke
◎编  剧 汤姆·奥康纳 Tom O'Connor
◎主  演 本尼迪克特·康伯巴奇 Benedict Cumberbatch
   瑞秋·布罗斯纳安 Rachel Brosnahan
   梅拉布·尼尼泽 Merab Ninidze
   玛丽亚·米罗诺娃 Mariya Mironova
   安东·莱瑟 Anton Lesser
   安格斯·瑞特 Angus Wright
   大卫·巴克·琼斯 David Bark-Jones
   米尔斯·理查森 Miles Richardson
   杰西·巴克利 Jessie Buckley
   基里尔·彼洛高夫 Kirill Pirogov
   Yuri Klimov
   马里安·洛伦西克 Marian Lorencik
   艾丽丝·奥尔尤因 Alice Orr-Ewing
   乔纳森·哈登 Jonathan Harden
   伊莲娜·艾尔米纳斯 Elina Alminas
   阿勒斯·比利克 Ales Bilík
   安德烈·库尔加诺夫 Andrey Kurganov
   奥德·马利 Ondrej Malý
   贝恩·科拉科 Bern Collaço
   迪诺·布加迪 Deano Bugatti
   拉塞尔·巴洛格 Russell Balogh
   约瑟夫·巴德拉玛 Joseph Balderrama
   Angus Wright

◎标  签 间谍 | 冷战 | 英国 | 卷福 | 战争 | 英国电影 | BenedictCumberbatch | 2020

◎简  介

根据英国商人葛雷维尔韦恩(Greville Wynne)的真实故事改编。
《信使》描述葛雷维尔(本尼迪克特·康伯巴奇 饰)在冷战期间与苏联线人欧列格潘科夫斯基(Oleg Penkovsky),暗中协助中情局渗透苏联的核子计划,并提供了成功阻止古巴导弹危机的重要情报。


了解更多......

引用

DISC INFO:

Disc Title:     The Courier - Blu-ray™
Disc Label:     The Courier 2020 Blu-ray 1080p #A#V#C DTS-HD MA 5.1-ltzww@CHDBits
Disc Size:      44,468,584,395 bytes
Protection:     AACS
Extras:         BD-Java
BDInfo:         0.7.5.8

PLAYLIST REPORT:

Name:                   00000.MPLS
Length:                 1:52:00.755 (h:m:s.ms)
Size:                   35,468,488,704 bytes
Total Bitrate:          42.22 Mbps

VIDEO:

Codec                   Bitrate             Description    
-----                   -------             -----------    
MPEG-4 #A#V#C Video        36215 kbps          1080p / 23.976 fps / 16:9 / High Profile 4.1

AUDIO:

Codec                           Language        Bitrate         Description    
-----                           --------        -------         -----------    
DTS-HD Master Audio             English         3489 kbps       5.1 / 48 kHz /  3489 kbps / 24-bit (DTS Core: 5.1 / 48 kHz /  1509 kbps / 24-bit)
Dolby Digital Audio             English         192 kbps        2.0 / 48 kHz /   192 kbps / DN -27dB

SUBTITLES:

Codec                           Language        Bitrate         Description    
-----                           --------        -------         -----------    
Presentation Graphics           English         30.002 kbps                    
Presentation Graphics           Spanish         30.194 kbps                    
Presentation Graphics           Chinese         29.370 kbps   简体中文                    
Presentation Graphics           Chinese         29.892 kbps   繁体中文                  
Presentation Graphics           Chinese         47.954 kbps   简英双语                  
Presentation Graphics           Chinese         48.473 kbps   繁英双语                  

FILES:

Name            Time In         Length          Size            Total Bitrate  
----            -------         ------          ----            -------------  
00502.M2TS      0:00:00.000     0:10:35.259     3,377,633,280   42,535          
00508.M2TS      0:10:35.259     0:00:41.207     219,144,192     42,544          
00514.M2TS      0:11:16.467     0:00:26.735     140,267,520     41,973          
00512.M2TS      0:11:43.202     0:00:27.360     144,322,560     42,199          
00509.M2TS      0:12:10.563     0:19:18.407     6,130,667,520   42,339          
00515.M2TS      0:31:28.970     0:00:32.782     172,443,648     42,082          
00501.M2TS      0:32:01.753     0:00:43.334     229,330,944     42,336          
00511.M2TS      0:32:45.088     0:00:37.412     198,088,704     42,358          
00506.M2TS      0:33:22.500     0:17:53.072     5,694,271,488   42,452          
00505.M2TS      0:51:15.572     0:00:20.353     107,010,048     42,060          
00513.M2TS      0:51:35.926     0:01:58.827     626,104,320     42,152          
00510.M2TS      0:53:34.753     0:00:23.023     120,274,944     41,793          
00503.M2TS      0:53:57.776     0:02:42.912     857,278,464     42,098          
00507.M2TS      0:56:40.688     0:00:23.940     127,002,624     42,439          
00504.M2TS      0:57:04.629     0:54:56.126     17,324,648,448  42,049

返回顶部

Copyright © 2004-2020 版权所有 ohtpc.com     京ICP备12030260号-1