为了方便广大高清爱好者的交流,QQ群:69655899,欢迎大家参与交流!
当前位置: 首页 >> 浏览商品

影片库

搜索影片

    风月场 第一季---------妓女界的唐顿庄园(2010)

    6.6

    Maison close Season 1

    编号:95-197 类型:高清HD

    视频编码: 影片大小:43.6 GB 片源分类:生活

    地区:欧洲/英国 是否蓝光:是蓝光 音频格式: 发行年份:2010 更新时间:2021/5/25 12:49:29

    发行年份:2010 影片备注:


◎译  名:风月场 第一季 / Maison close
◎片  名:Maison close Season 1
◎年  代:2010
◎产  地:法国
◎类  型:剧情
◎语  言:法语
◎上映日期:2010-10-04(法国)
◎评  级:|
◎IMDb链接:https://www.imdb.com/title/tt1589806/
◎IMDb评分:6.6 (462人评价)
◎TMDb链接:https://www.themoviedb.org/tv/38486/season/1
◎TMDb系列:https://www.themoviedb.org/tv/38486/seasons
◎豆瓣链接:https://movie.douban.com/subject/4075577/
◎豆瓣评分:6.8 (337人评价)
◎导  演:马布鲁克·埃尔·梅奇 / 热罗姆·科尔尼奥 / 雅克·乌瓦尼西
◎编  剧:雅克·乌瓦尼西
◎主  演:杰迈玛·韦斯特 / 米夏埃尔·科恩 / 米夏埃尔·阿比特布尔 / 奥雷利昂·维依科 / 让-玛丽·弗兰 / Anne Charrier / Valerie Karsenti /
  Catherine Hosmalin / Clemence Bretecher / Deborah Grall / Blandine Bellavoir

◎剧情简介:
1871年年末,在一家名叫“天堂”的豪华巴黎妓院里,三个女人试图逃脱男人强加给她们的束缚。年轻的萝丝,为了寻找她的妓女母亲,只身来到巴黎。但却被坏人所害,强行被困在这个“天堂”里。维拉,35岁,她自知自己已经人老珠黄,所以把全部心血都花在了她的主要客人也是唯一能为她赎身的珀莱希斯男爵身上。奥尔当丝,“天堂”的老板,一边要维持住生意,一边还要遭受社会黑势力收取保护费的要胁。



了解更多......


引用

※※※※※※※ 参数信息 ※※※※※※※

DISC INFO:

Disc Title:     MAISON CLOSE - DISC 1
Disc Label:     Maison close S01D01 2010
Disc Size:      46,800,460,859 bytes
Protection:     AACS
Extras:         50Hz Content
BDInfo:         0.7.5.5

PLAYLIST REPORT:

Name:                   00006.MPLS
Length:                 3:32:48.839 (h:m:s.ms)
Size:                   46,521,888,768 bytes
Total Bitrate:          29.15 Mbps

VIDEO:

Codec                   Bitrate             Description    
-----                   -------             -----------    
MPEG-4 #A#V#C Video        26000 kbps          1080i / 25 fps / 16:9 / High Profile 4.1

AUDIO:

Codec                           Language        Bitrate         Description    
-----                           --------        -------         -----------    
LPCM Audio                      French          1536 kbps       2.0 / 48 kHz /  1536 kbps / 16-bit

SUBTITLES:

Codec                           Language        Bitrate         Description    
-----                           --------        -------         -----------    
Presentation Graphics           English         26.775 kbps                    
Presentation Graphics           Chinese         22.162 kbps(简体字幕)                    
Presentation Graphics           Chinese         23.309 kbps(繁体字幕)                    

FILES:

Name            Time In         Length          Size            Total Bitrate  
----            -------         ------          ----            -------------  
00001.M2TS      0:00:00.000     0:55:30.040     12,129,177,600  29,139          
00002.M2TS      0:55:30.040     0:53:02.040     11,594,606,592  29,150          
00003.M2TS      1:48:32.080     0:51:49.040     11,325,382,656  29,142          
00004.M2TS      2:40:21.119     0:52:27.719     11,472,721,920  29,158

返回顶部

Copyright © 2004-2020 版权所有 ohtpc.com     京ICP备12030260号-1