为了方便广大高清爱好者的交流,QQ群:69655899,欢迎大家参与交流!
当前位置: 首页 >> 浏览商品

影片库

搜索影片

    【维也纳爱乐乐团澳门音乐会】(2020)

    4K超高清

    编号:4K-43 类型:高清HD

    视频编码: 影片大小:22.04 GB 片源分类:4K

    地区:大陆港台,美国 是否蓝光:是蓝光 音频格式: 发行年份:2020 更新时间:2020/1/8 12:49:14

    发行年份:2020 影片备注:


1.《D小调第三钢琴协奏曲》第一乐章 不太快的快板
钢琴:王羽佳
指挥:安德烈·奥罗斯科-艾斯特拉达
演奏:维也纳爱乐乐团;

2.《D小调第三钢琴协奏曲》第二乐章 柔板
钢琴:王羽佳
指挥:安德烈·奥罗斯科-艾斯特拉达
演奏:维也纳爱乐乐团;

3.《D小调第三钢琴协奏曲》第三乐章 终曲
钢琴:王羽佳
指挥:安德烈·奥罗斯科-艾斯特拉达
演奏:维也纳爱乐乐团;

4.《E小调第九交响曲》第一乐章 序奏
指挥:安德烈·奥罗斯科-艾斯特拉达
演奏:维也纳爱乐乐团;

5.《E小调第九交响曲》第二乐章 最缓板
指挥:安德烈·奥罗斯科-艾斯特拉达
演奏:维也纳爱乐乐团;

6.《E小调第九交响曲》第三乐章 谐谑曲
指挥:安德烈·奥罗斯科-艾斯特拉达
演奏:维也纳爱乐乐团;

7.《E小调第九交响曲》第四乐章 快板
指挥:安德烈·奥罗斯科-艾斯特拉达
演奏:维也纳爱乐乐团;

8.《无忧无虑快速波尔卡》
指挥:安德烈·奥罗斯科-艾斯特拉达
演奏:维也纳爱乐乐团。



引用

General
ID                             : 303 (0x12F)
Complete name                  : D:CCTV4K.Vienna.Philharmonic.Macao.Concert.20200101.UHDTV.HEVC.HLG.DD.5.1-NGB.ts
Format                         : MPEG-TS
File size                      : 22.0 GiB
Duration                       : 1 h 34 min
Overall bit rate mode          : Variable
Overall bit rate               : 33.3 Mb/s

Video
ID                             : 6821 (0x1AA5)
Menu ID                        : 682 (0x2AA)
Format                         : HEVC
Format/Info                    : High Efficiency Video Coding
Format profile                 : Main@L5@High
Codec ID                       : 36
Duration                       : 1 h 34 min
Bit rate                       : 31.2 Mb/s
Width                          : 3 840 pixels
Height                         : 2 160 pixels
Display aspect ratio           : 16:9
Frame rate                     : 50.000 FPS
Standard                       : Component
Color space                    : YUV
Chroma subsampling             : 4:2:0 (Type 0)
Bit depth                      : 8 bits
Bits/(Pixel*Frame)             : 0.075
Stream size                    : 20.7 GiB (94%)
Color range                    : Limited
Color primaries                : BT.2020
Transfer characteristics       : HLG
Matrix coefficients            : BT.2020 non-constant

Audio
ID                             : 6822 (0x1AA6)
Menu ID                        : 682 (0x2AA)
Format                         : AC-3
Format/Info                    : Audio Coding 3
Commercial name                : Dolby Digital
Codec ID                       : 6
Duration                       : 1 h 34 min
Bit rate mode                  : Constant
Bit rate                       : 448 kb/s
Channel(s)                     : 6 channels
Channel layout                 : L R C LFE Ls Rs
Sampling rate                  : 48.0 kHz
Frame rate                     : 31.250 FPS (1536 SPF)
Bit depth                      : 16 bits
Compression mode               : Lossy
Delay relative to video        : -396 ms
Stream size                    : 304 MiB (1%)
Service kind                   : Complete Main

返回顶部

Copyright © 2004-2020 版权所有 ohtpc.com     京ICP备12030260号-1